Greeڷ500

Format : Flash Video
File size : 10.4 MiB
Duration : 1mn 44s
Overall bit rate : 833 Kbps
Video
Format : VP6
Duration : 1mn 44s
Bit rate : 700 Kbps
Width : 600 pixels
Height : 450 pixels
Display aspect ratio : 4:3
Frame rate : 29.540 fps
Bits/(Pixel*Frame) : 0.088
Stream size : 8.74 MiB (84%)
Audio
Format : MPEG Audio
Format version : Version 1
Format profile : Layer 3
Duration : 1mn 44s
Bit rate mode : Constant
Bit rate : 80.0 Kbps
Channel(s) : 1 channel
Sampling rate : 44.1 KHz
Resolution : 16 bits
Stream size : 1 022 KiB (10%)